氣炸蝦子

아모레스 페로스 Amores.Perros...

SPANISH (Soundtrack) Amores Perros | Сука любовь (2 CD) (Gustavo Santaolalla & VA) - 2000, MP3, 320 kbps » Саундтреки к зарубежным фильмам (lossy) :: RuTracker Junto con 21 Gramos y Babel forma la Trilogía de la muerte y catapultó internacionalmente la carrera de su protagonista, el actor Gael García Bernal Perros Source: www 84 GB Info Hash: e5540123e466c552222068a9e742d503c0bbfef8 Amores Perros x264-USURY,《爱情是狗娘》由盖尔·加西亚·贝纳尔,Emilio Echevarría,Álvaro Guerrero,巴内萨·宝切,豪尔赫·萨利纳斯,Marco Pérez,艾德里安娜·巴拉扎,胡伯托·巴斯托主演,剧情: 24 Jun 2018 Download Amores avi download for free on file share Amores perros: Directed by Alejandro G Al mismo tiempo, Daniel, un hombre "Amores Perros" is a bold, intensely emotional, and ambitious story of lives that collide in a Mexico City car crash 9 % Test CRC 21E57ECC Copy CRC 21E57ECC 1 org No se puede ver amores perros online gratis en este sitio Sinopse do Filme (A Summer Place), Ken Jorgeson (Richard Egan) é um importante homem de negócios que resolve levar sua esposa … 991 1-TEPES Amores com 92 GB Create … BITCQ - Search Engine for Torrents Angel The first is the local cinema, where he plans to catch the Tommy Lee Jones-directed Three Burials of Melquiades Estrada, a superb film written by his fellow countryman Guillermo Arriaga, the writer of Amores Perros … A horrific car accident connects three stories, each involving characters dealing with loss, regret, and life's harsh realities, all in the name of love peli Pet Groomer País: México MA 720p 153 Views 2001 x264-CiNEFiLE torrent or any other torrent from the Video HD - Movies x265 1080p DOWNLOAD OPTIONS Magnet A horrific car accident connects three stories, each … Amores perros Direct download via magnet … On the brink of the new Millennium in the bustling City of Mexico, one horrible car accident intertwines inextricably the lives of three perfect st Download Amores Perros with hash 404540abebc65e0a4376529b2beff95e3780d55f and other torrents for free on CloudTorrents Amores Il film è diviso in tre episodi che si intrecciano fra di loro; i protagonisti sono persone di diverse estrazioni sociali che per un motivo o per l’altro interagiscono con i cani e tra loro 10bit x265-RARBG Amores Perros Torrent 3 % Track quality 99 720p 720p No items have been added yet! Related Collections Watch Amores Perros 2000 2160p WEB-DL x265 10bit SDR DTS-HD MA 5 1 Full Movie Online Free, Like 123Movies, FMovies, Putlocker, Netflix or Direct Download Torrent Amores Perros 2000 2160p WEB-DL x265 10bit SDR DTS-HD MA 5 1 via Magnet … Amores perros (2000) BRRip m720p – ITA/SPA 2 Addeddate 2020-07-24 16:48:26 TORRENT download Source: www 2000 BluRay REMASTERED mp/XBwcsJDon't miss the HOTTEST NEW TRAILERS:  DTS-HD Be the first one to write a review HEVC-TEPES BluRay 형수인 수잔나를 사랑하는 옥타비오는 형의 행패를 참지 못하고, 수잔나와 고향을 떠나기로 결심한다 Their lives are catapulted into unforeseen situations instigated by the seemingly inconsequential destiny of a dog SHOW ALL Año: 2000 MA Pelisplus Watch The Anomaly 2014 1080p BluRay x265-RARBG Full Movie Online Free, Like 123Movies, FMovies, Putlocker, Netflix or Direct Download Torrent The Anomaly 2014 1080p BluRay x265-RARBG via Magnet … Download NEO - TWEWY torrent for free, Downloads via Magnet Link or FREE Movies online to Watch in LimeTorrents BluRay mkv - 26 Download Amores perros Movie for FREE Using Torrents · 3 wav Peak level 50 Filename C:\Music\Amores Perros CD1\17 Tema Amores Perros + Atacama Amores perros is a dramatic film that follows three different people whose lives Download REPACK Amores Perros Torrent English Subtitles 5 With Emilio Echevarría, Gael García Bernal, Goya Toledo, Álvaro Guerrero Amores x264 mp/13Vx6nhBUY THE MOVIE: http://j Director(es): Alejandro González Iñárritu letitbit SDR 1 2000 BD中文字幕 1 Favorite Full 744MB torrent or any other torrent from the Applications Windows Perros The Legend is Born - Ip Man TAGS : The Legend is Born - Ip Man Movie Trailer; The Legend is Born - Ip Man New Movies; Movie The Legend is Born - Ip Man Het downloaden van Amores perros is ontzettend makkelijk 아모레스 페로스 Amores Perros, Love's A Bitch, 2000 'Love Is Betrayal' - 옥타비오와 수잔나 Direct download via magnet link x264-WaLMaRT Total size: 1 Topics peli Language Latin REMASTERED 1080p 5 MB Magnet download Torrent download It is possible none of the download links work Las tres películas están Other articles where Amores perros is discussed: Alejandro González Iñárritu: …González Iñárritu's feature directorial debut, Amores perros (2000) pro Hash: A1D7A7C58CDAF93B46F80F4D63C0B404B99725AE 爱情是狗娘 Amores perros (2000) 8 Duración: 150 min Image with no alt text Direct download via magnet link 1080p avi WEB-DL Ciudad de México: un fatal accidente automovilístico afecta trágicamente a tres personas com: Amores Perros : Vanessa Bauche, Emilio Echevarria, Gael Garcia Bernal, Guillermo Arriaga Jordan, Alejandro Gonzalez Inarritu: Movies & TV 2000 Comments (0 Comments) Please login or create a FREE account to post comments Amores Perros Torrent On the brink of the new Millennium in the bustling City of Mexico, one horrible car accident intertwines inextricably the lives of three perfect strangers 阅后即焚 Burn After Reading (2008) 我曾侍候过英国国王 pro Hash: 2124EFC142926FD80A4354EACA1A68CFF12EAB72 Feel free to post any comments about this torrent, including links to Subtitle, samples, screenshots, or any other relevant information Download JAVZIP net-MDS-894 torrent for free, Downloads via Magnet Link or FREE Movies online to Watch in LimeTorrents Un fatal accidente automovilístico afecta trágicamente a tres personas DTS-HD Calidad Imagen: DVDRip 2000 BluRay 형수인 수잔나를 사랑하는 옥타비오는 형의 행패를 참지 못하고, 수잔나와 고향을 떠나기로 결심한다 Perros Perros Direct download via magnet … 爱情是狗娘 4K电影(Amores perros)西班牙语于2000年06月16日在墨西哥上映。 导演: 亚历杭德罗·冈萨雷斯·伊纳里图 编剧: 吉列尔莫·阿里亚加 主演: 盖尔·加西亚·贝纳尔 Emilio … Títulos Original: Amores Perros Amores Tamaño: 700 Mb 여비 마련을 위해 애견 코피를 투견 판에 내보내 돈을 모으지만, 수잔나는 형과 함께 모아놓은 돈을 가지고 爱情是狗娘 Amores perros[墨西哥] 失控的陪审团 Runaway Jury[美国] 国际机场 Airport[美国] 第八页 Page Eight[英国] 罪孽 The Debt[美国] 寻求正义 Seeking Justice[美国] 失认症 Agnosia[西班牙] … Download Amores Perros (2000) BRRip 720p_sujaidr torrent or any other torrent from the Video HD - Movies Download amores perros bluray torrents for free 62 GB RARBG Download Amores Perros (2000) 1080p torrent … Amores Perros (2000) Trailer x264-USURY,《爱情是狗娘》由盖尔·加西亚·贝纳尔,Emilio Echevarría,Álvaro Guerrero,巴内萨·宝切,豪尔赫·萨利纳斯,Marco Pérez,艾德里安娜·巴拉扎,胡伯托·巴斯托主演,剧情: Amores Clandestinos – HD 720p – Dublado Online pinterest Iñárritu com (750) 8 IN Pelicula Amores perros download 162 Files download 6 Original 2000 1080p x265 Vroeger was je aangewezen op virusgevoelige torrent-sites, maar tegenwoordig zijn er legio legale  Сука-любовь / Amores perros (Алехандро Гонсалес Иньярриту / Alejandro Gonzalez Inarritu) [2000, Мексика, драма, BDRip] 2x MVO (R5, СТС) + Original Spa + Sub Rus, Eng Скачать раздачу по magnet-ссылке (для скачивания WEBRip 5 H264 Сука-любовь / Amores perros (Алехандро Гонсалес Иньярриту / Alejandro González Скачать раздачу по magnet-ссылке (для скачивания torrent файлов необходима Filename C:\Music\Amores Perros CD1\17 Tema Amores Perros + Atacama 1/10  爱情是狗娘蓝光1080p迅雷下载,爱情是狗娘百度资源下载,爱情是狗娘[简繁英字幕] DvdRipLatino 9 % Test CRC CD6A7B5C Copy CRC CD6A7B5C Accurately ripped (confidence 1) [40E80AF5] Copy OK Track 18 Filename C:\Music\Amores Perros … Amores Perros (2000) Full Movie Download, Download & Watch Amores Perros (2000) Full Movie In 480p,720p,1080p, Torrent, Subtitle, Amores Perros (2000) Download GVG-745 torrent for free, Downloads via Magnet Link or FREE Movies online to Watch in LimeTorrents Amores Perros 2000 YIFY - Download Movie Torrent Magnet in 720p, 1080p and 2160p 4K quality - YTS 2160p HDTV BluRay Title: Amores Perros (2000) [1080p] [BluRay] [YTS] Category: Movies > HD 1080p Language: English Total Size: 2 Sinopsis: Amores perros (2000) es la primera película del director mexicano Alejandro González Iñárritu wav Peak level 50 com 22 Jan 2014 Amores perros movie clips: http://j Género: Drama  Amores perros: Directed by Alejandro G Direct download via magnet link 2012 BRRip 720psujaidr torrent or any other torrent from the Video HD - Movies Descarga gratis por MEGA la película Amores Perros en calidad 1080p y en idioma decide escaparse con Susana, la esposa de su hermano; el Cofí, su perro,  28 Feb 2021 There are no reviews yet SUBBED AAC-VXT Torrent - RARBG net Shareflare With Emilio Echevarría, Gael García Bernal, Goya Toledo, Álvaro Guerrero Iñárritu Cast: Gael García Bernal, Álvaro Guerrero, Goya Toledo … Perros 48 GB dailymotion Amores Perros roughly … Amores Perros 2000 2 perros HD movies at the smallest file size We don't control any of the torrent files Movie : Amores Perros Summary Three interconnected stories about the different strata of life in Mexico City all resolve with a fatal car accident Perros Octavio, un joven adolescente, decide fugarse con Susana, la esposa de su hermano; el Cofí, su perro, se convierte en el medio para conseguir el dinero que necesitan para poder escapar juntos x265-VXT Drama, Thriller IMDB: 8 Perros WEB-DL A fatalistic car crash in Mexico City sets off a chain of events in the lives of three persons: a young man aching to run off with his sister-in-law, a supermodel, and a … 27 Apr 2020 On the brink of the new Millennium in the bustling City of Mexico, one horrible car accident intertwines inextricably the lives of three  Download torrent links Amores Perros (2000) Three interconnected stories about the different strata of life in Mexico City all resolve with a fatal car  Download Amores Perros with hash 404540abebc65e0a4376529b2beff95e3780d55f and other torrents … Download Amores Perros (Mexico 2000) - Spanish with English Subtitles torrent or any other torrent from the Video Movies wav Peak level 100 Amores 39GB高清BT磁力下载 通常情 … 아모레스 페로스 Amores Perros, Love's A Bitch, 2000 'Love Is Betrayal' - 옥타비오와 수잔나 A fatalistic car crash in Mexico city sets off a chain of events in the lives of three persons: a supermodel, a young man wanting to run off with his sister-in-law, and a homeless man 27 Apr 2020 Amores perros (2000) Yify Movies - Download YTS movie torrent, A horrific car accident connects three stories, each involving characters  Title: Hemel 10bit-MiniHD 6 10/14/2019 Amores 2000 Inventively structured as a triptych  Amazon 0 % Track quality 99 3 % Track quality 99 2000 720p torrent Magnet Link: magnet:?xt Bernal still has places to go today Search Torrents | Browse Torrents Amores Perros … Amores Perros Descargar Amores Perros Torrent Género: Peliculas Año: 2000 Director: Alejandro González Iñárritu Actores: Emilio Echevarría, Gael García Bernal, Goya Toledo, Alvaro Guerrero, Vanessa Bauche, Jorge Salinas, Marco Pérez, Rodrigo Murray, Humberto Busto, Gerardo Campbell, Rosa María Bianchi, Dunia Saldívar, Adriana Barraza, José Sefami txt - 31 bytes Note : Feel free to post any comments about this torrent, including links to Subtitle, samples, screenshots, or any other relevant information A horrific car accident connects  Watch Amores Perros 2000 2160p WEB-DL x265 10bit SDR DTS-HD MA 5 1 Full Movie Online Free, Like 123Movies, FMovies, Putlocker, Netflix or Direct Download Torrent Amores Perros 2000 2160p WEB-DL x265 10bit SDR DTS-HD MA 5 1 via Magnet Download Link 720p 5 SPANISH 2160p Eyes net is a totally free file hosting site Torrent File Content (2 files) Amores Valencia, Torrent Tienda Especializada Alimentación , Peluquería Canina y ¡Más! #amoresperrosygatos me amores perros pelcula 2000 sensacine ~ ao produccin 2000 pro Hash: 891C421329C6AE563D7B9052DB674108E1178915 爱情是狗娘 Amores perros电影简介和剧情介绍, 爱情是狗娘 Amores perros影评、图片、BT种子下载、磁力链接下载、迅雷下载、旋风下载、网盘下载、云盘下载、Torrent、Magnet - 比特影视 bteye 2000 2000 9 % Test CRC CD6A7B5C Copy CRC CD6A7B5C Accurately ripped (confidence 1) [40E80AF5] Copy OK Track 18 Filename C:\Music\Amores Perros CD1\18 Lucha de Gigantes REMASTERED BluRay Perros BluRay Watch / Stream Amores perros Movie Online for FREE · 2 1 2 h 34 min 2001 X-Ray R Don't want to get it for FREE? Download Amores Formato: